#TITLE:Crazy;
#SUBTITLE:Dead Master;
#ARTIST:Teen Top;
#TITLETRANSLIT:;
#SUBTITLETRANSLIT:;
#ARTISTTRANSLIT:;
#CREDIT:;
#BANNER:bn.jpg;
#BACKGROUND:bg.jpg;
#LYRICSPATH:;
#CDTITLE:cd.png;
#MUSIC:Crazy.ogg;
#OFFSET:-2.310;
#SAMPLESTART:44.977;
#SAMPLELENGTH:12.000;
#SELECTABLE:YES;
#BPMS:0.000=140.625;
#STOPS:;
#BGCHANGES:;
// cache tags:
#FIRSTBEAT:0.750;
#LASTBEAT:263.500;
#SONGFILENAME:Songs/sdf/Crazy (Teen Top)/Crazy.sm;
#HASMUSIC:1;
#HASBANNER:1;
#MUSICLENGTH:118.285;
// end cache tags

//---------------dance-single - ----------------
#NOTES:
     dance-single:
     :
     Hard:
     1:
     0.929,0.947,1.000,0.101,1.000,535.000,191.000,12.000,0.000,29.000:
0000
0000
0000
2000
0000
0000
0000
0000
0000
0000
0000
0000
0000
0000
0000
3000
,
0010
0000
0010
0000
0100
0001
0000
0000
0010
0000
0010
1000
0000
0001
0000
0100
,
0010
0000
1000
0000
0001
0000
0100
0010
0000
0000
1000
0001
0000
0100
0000
0010
,
0100
0001
1000
0010
0100
0001
1000
0010
,
0100
0000
0001
0000
1000
0000
0010
0000
0100
0000
0001
1000
0000
0000
0010
0100
,
0000
0001
0000
1000
0000
0010
0000
0100
0000
0001
0000
1000
0000
0010
0100
0000
,
0001
0000
1000
0000
0010
0001
0000
0001
0000
0001
0000
0001
0000
0100
0010
0000
,
0010
1000
0100
0020
0000
0000
0000
0000
,
0000
0000
0000
0000
0000
0000
0000
0000
0000
0000
0000
0000
0000
0000
0000
0130
,
0000
0100
0100
0000
0100
0000
0100
0010
0000
1001
0000
0110
0000
0000
0000
1001
,
0000
0000
0000
0110
0000
0000
0001
1000
0000
0110
0000
1001
0000
0110
0000
0101
,
0000
1010
0000
0101
0000
1010
0000
0001
0100
0010
0100
0101
0000
0101
0000
0000
,
1010
0000
0101
0000
0110
0000
0000
1001
0000
1001
0000
0110
0000
0001
0100
0000
,
1010
0000
0001
0000
0110
0000
0101
0000
1010
0000
0101
0000
0110
0000
0000
1001
,
0000
0000
0000
0000
0101
0000
0000
0010
1000
0000
0001
0000
0110
0000
0001
1000
,
0000
0110
0000
1001
0000
0110
0000
0001
1000
0000
0110
0000
1001
0000
0110
0000
,
0101
0000
0101
0000
1000
0000
0000
0101
0000
0101
0000
0000
0100
0010
0000
0000
,
1010
0000
0000
0000
0101
0000
0000
0000
0101
0000
0000
0000
0111
0000
0000
0111
,
0000
0000
1110
0000
0000
0000
1110
0000
0000
0111
0000
0111
0000
0000
0000
0110
,
0000
0110
0000
1001
0000
0010
0100
0101
0000
0000
0110
0000
0000
1110
0000
0010
,
1100
1110
0000
0111
0111
0111
0000
1010
,
0010
0100
0010
0100
0001
1000
0110
0000
0001
0100
0110
0000
1101
0000
0000
1101
,
0000
0000
0111
0000
0000
0000
0110
0000
0010
1100
0000
1110
0000
0000
0101
0000
,
0010
0100
0000
0010
1000
0000
0110
0000
0001
0000
0100
0010
1000
0000
0110
0000
,
0001
0000
0010
0100
1000
0000
0100
0010
0001
0010
0000
1100
0000
0110
0000
0010
,
0001
0010
0000
1100
0200
0000
0000
0000
0310
0000
0000
0000
0001
0010
0000
0100
,
1000
0110
0000
0010
0000
0100
0010
0000
0000
0011
0000
0100
1000
0100
0010
0010
,
0000
0100
0001
0010
0000
0100
1000
0110
0010
0000
0000
0010
0000
0000
0100
0000
,
0010
0010
0001
0100
1000
0100
0010
0000
0010
0001
0010
0000
0100
0010
0000
0010
,
0100
0000
1000
0100
0010
0000
0010
0001
0010
0200
0000
0000
0000
0000
0300
0010
,
0001
0010
0000
1100
0000
0010
0000
0000
0002
0000
0000
0000
0003
0100
1000
0000
,
0100
0010
0001
0010
0000
0100
0010
0000
0200
0000
0000
0000
0000
0300
0010
0001
,
0010
1000
0100
0000
0010
0000
0010
0001
0010
0000
0100
1000
0100
0010
0000
0001
,
0010
0100
0010
0000
0110
0000
0010
0000
0100
1000
0100
0000
0010
0000
0001
0000
,
0101
0000
0000
0110
0000
1001
0000
0110
0000
1001
0000
0110
0000
0101
0000
1001
,
0000
0110
0000
0101
0000
0101
0000
0000
0010
1000
1001
0000
0000
0110
0001
0000
,
0000
0110
0000
1001
0000
0110
0000
1001
0000
0110
0000
0101
0000
1001
0000
0010
,
0000
0000
0101
0000
0110
0000
0001
0000
0101
0000
0101
0000
0000
0010
1000
0000
,
0200
0000
0000
0310
0000
0010
0000
0000
0100
0001
0000
0001
0010
0100
1000
0100
,
0020
0000
0000
0030
0100
0000
0002
0000
0000
0003
0000
0010
0010
0000
1000
0100
,
0000
0010
0010
0000
0100
0010
0000
0100
0000
1000
0000
0001
0010
0000
0100
0010
,
1000
0001
0000
0000
0110
0000
0101
0000
0110
0000
0101
0000
0000
1010
0000
0000
,
0000
0101
0101
0000
0000
1010
1001
0000
0000
0110
0001
1000
0010
0000
0000
0101
,
0000
0110
1001
0000
0010
0100
0101
0000
0110
0000
1001
0000
0110
0000
0101
0000
,
1010
0000
1001
0000
0110
0000
0101
0000
1000
0010
0001
0100
0110
0000
0001
1000
,
0000
0110
0101
0000
0001
0100
0101
0000
1010
0000
1010
0000
1001
0000
0101
0000
,
0000
0000
1010
0000
0000
0001
1100
0000
0000
0000
0111
0110
0000
0000
0000
0110
,
0000
1010
0000
0110
0000
0101
0000
1010
0000
0101
0000
0010
1001
1000
0110
0000
,
1001
0000
0110
0000
0101
0000
0001
1000
0000
0010
0000
0110
0000
0001
1000
0000
,
0020
0000
1000
0030
0100
0000
0010
0000
0000
0000
0010
0000
0000
0000
1010
0000
,
0000
1110
0000
0000
1111
0000
0000
0000
0000
0111
0110
0000
0010
1000
0000
0000
,
0110
0000
0110
0000
1001
0000
0110
0000
0010
0100
0000
1001
0000
1001
0000
1101
,
0000
0000
1101
0000
0010
0101
0000
0000
0000
0110
0000
1010
0000
0101
0000
0010
,
1000
0001
0100
0010
1000
0001
0100
0000
0110
0000
1001
0000
0101
0000
0000
0111
,
0000
0100
0011
0000
0000
1110
0000
0000
1110
0000
1110
0000
0000
0101
0000
0010
,
0000
0100
1000
0100
0010
0010
0000
0001
0010
0000
1100
0000
0100
0010
0010
0000
,
0001
0010
0100
1000
0000
0100
0010
0010
0001
0010
0000
0000
1100
0100
0010
0000
,
0010
0001
0010
0000
0100
1000
0100
0020
0000
0000
0000
0130
0000
0000
0010
0010
,
0000
1000
0001
0001
0000
0100
0010
0010
0100
0000
0001
1000
0000
0010
0000
0101
,
0000
0000
0000
1110
0000
0000
0000
0101
0000
0000
0000
0101
0000
0000
0000
1010
,
0010
0000
0001
0010
0000
1100
0000
0110
0000
0010
0001
0010
0100
0000
0000
0010
,
0010
0000
1000
0010
0000
0000
0000
0001
0010
0000
0000
0100
0000
0000
0000
1010
,
0000
0010
0100
0001
0000
0100
0010
1000
0000
0010
0000
0011
0000
0000
0000
1101
,
0000
0000
0000
0111
0000
0000
0000
0010
1100
0000
0000
0000
1111
0000
0000
0000
,
0110
0010
0000
0110
0000
0010
0100
0010
1000
0001
0000
0010
0100
0010
0002
0000
,
1000
0000
0000
0000
0000
0000
0000
0003
;
